osu file format v14

[General]
AudioFilename: snow prismSNOWYCORE.mp3
AudioLeadIn: 1500
PreviewTime: 67837
Countdown: 0
SampleSet: Normal
StackLeniency: 0.7
Mode: 1
LetterboxInBreaks: 0
WidescreenStoryboard: 0

[Editor]
DistanceSpacing: 1
BeatDivisor: 4
GridSize: 8
TimelineZoom: 1

[Metadata]
Title:snow prism
TitleUnicode:snow prism
Artist:Qrispy Joybox
ArtistUnicode:Qrispy Joybox
Creator:TKSalt
Version:Futsuu
Source:REFLEC BEAT colette
Tags:bemani konami Lundlerol REFLEC BEAT colette pop'n music DDR poptune SNOWY CORE
BeatmapID:224084
BeatmapSetID:72392

[Difficulty]
HPDrainRate:4
CircleSize:4
OverallDifficulty:4
ApproachRate:5
SliderMultiplier:1.2
SliderTickRate:1

[Events]
//Background and Video events
0,0,"04422x.jpg",0,0
//Break Periods
//Storyboard Layer 0 (Background)
//Storyboard Layer 1 (Fail)
//Storyboard Layer 2 (Pass)
//Storyboard Layer 3 (Foreground)
//Storyboard Sound Samples
//Background Colour Transformations
3,100,0,0,0

[TimingPoints]
1791,306.122448979592,4,1,0,65,1,0
14036,-100,4,1,0,65,0,1
33627,-100,4,1,0,65,0,0
67913,-100,4,1,0,65,0,1
87505,-100,4,1,0,65,0,0

[Colours]
Combo1 : 149,221,255
Combo2 : 255,128,128

[HitObjects]
256,192,1178,1,0,0:0:0:0:
256,192,1791,5,8,0:0:0:0:
256,192,2097,1,8,0:0:0:0:
256,192,2403,5,0,0:0:0:0:
256,192,2709,1,0,0:0:0:0:
256,192,3015,1,0,0:0:0:0:
256,192,3627,1,4,0:0:0:0:
256,192,3933,1,4,0:0:0:0:
256,192,4239,5,8,0:0:0:0:
256,192,4852,5,0,0:0:0:0:
256,192,5158,1,0,0:0:0:0:
256,192,5464,1,0,0:0:0:0:
256,192,6076,5,8,0:0:0:0:
256,192,6688,1,8,0:0:0:0:
256,192,6995,1,8,0:0:0:0:
256,192,7301,5,0,0:0:0:0:
256,192,7607,1,0,0:0:0:0:
256,192,7913,1,0,0:0:0:0:
256,192,8525,1,4,0:0:0:0:
256,192,8831,1,4,0:0:0:0:
256,192,9137,5,8,0:0:0:0:
256,192,9750,1,8,0:0:0:0:
256,192,10056,5,0,0:0:0:0:
256,192,10209,5,8,0:0:0:0:
256,192,11586,1,12,0:0:0:0:
256,192,14035,5,8,0:0:0:0:
256,192,14342,5,0,0:0:0:0:
256,192,14648,1,8,0:0:0:0:
256,192,14954,1,0,0:0:0:0:
256,192,15107,5,8,0:0:0:0:
256,192,15413,1,8,0:0:0:0:
256,192,15719,5,0,0:0:0:0:
256,192,16484,5,8,0:0:0:0:
256,192,16791,5,0,0:0:0:0:
256,192,17097,5,8,0:0:0:0:
256,192,17403,5,0,0:0:0:0:
256,192,17556,5,8,0:0:0:0:
256,192,17862,1,8,0:0:0:0:
256,192,18168,1,8,0:0:0:0:
256,192,18933,1,8,0:0:0:0:
256,192,19239,1,0,0:0:0:0:
256,192,19546,5,8,0:0:0:0:
256,192,19852,1,0,0:0:0:0:
256,192,20005,5,8,0:0:0:0:
256,192,20311,1,8,0:0:0:0:
256,192,20617,5,0,0:0:0:0:
256,192,21382,1,0,0:0:0:0:
256,192,21688,5,8,0:0:0:0:
256,192,21995,5,0,0:0:0:0:
256,192,22148,5,8,0:0:0:0:
256,192,22454,1,8,0:0:0:0:
256,192,22760,5,0,0:0:0:0:
256,192,23066,5,8,0:0:0:0:
256,192,23372,1,12,0:0:0:0:
256,192,23831,1,8,0:0:0:0:
256,192,24137,5,0,0:0:0:0:
256,192,24444,1,8,0:0:0:0:
256,192,24750,1,0,0:0:0:0:
256,192,24903,5,8,0:0:0:0:
256,192,25209,1,8,0:0:0:0:
256,192,25515,5,0,0:0:0:0:
256,192,26280,5,8,0:0:0:0:
256,192,26586,5,0,0:0:0:0:
256,192,26893,5,8,0:0:0:0:
256,192,27199,5,0,0:0:0:0:
256,192,27352,5,8,0:0:0:0:
256,192,27658,1,8,0:0:0:0:
256,192,27964,1,8,0:0:0:0:
256,192,28729,1,8,0:0:0:0:
256,192,29035,1,0,0:0:0:0:
256,192,29342,5,8,0:0:0:0:
256,192,29648,1,0,0:0:0:0:
256,192,29801,5,8,0:0:0:0:
256,192,30107,1,8,0:0:0:0:
256,192,30413,1,8,0:0:0:0:
256,192,30719,5,0,0:0:0:0:
256,192,31025,5,8,0:0:0:0:
136,72,31331,2,0,L|168:72,12,30,,,0:0:0:0:
256,192,33627,5,0,0:0:0:0:
256,192,34086,5,8,0:0:0:0:
256,192,34546,5,0,0:0:0:0:
256,192,35005,5,8,0:0:0:0:
256,192,35464,1,8,0:0:0:0:
256,192,35770,1,8,0:0:0:0:
256,192,36076,5,0,0:0:0:0:
256,192,36535,5,8,0:0:0:0:
256,192,36995,5,0,0:0:0:0:
256,192,37913,5,8,0:0:0:0:
256,192,38525,5,0,0:0:0:0:
256,192,38984,5,8,0:0:0:0:
256,192,39444,5,0,0:0:0:0:
256,192,39903,5,8,0:0:0:0:
256,192,40362,1,8,0:0:0:0:
256,192,40668,1,8,0:0:0:0:
256,192,40974,5,0,0:0:0:0:
256,192,41280,5,8,0:0:0:0:
256,192,41586,5,0,0:0:0:0:
256,192,41739,1,0,0:0:0:0:
256,192,41893,5,8,0:0:0:0:
256,192,42199,5,0,0:0:0:0:
256,192,42505,5,8,0:0:0:0:
256,192,42811,5,0,0:0:0:0:
256,192,42964,1,0,0:0:0:0:
256,192,43117,5,8,0:0:0:0:
256,192,43423,5,0,0:0:0:0:
256,192,43729,5,8,0:0:0:0:
256,192,44035,5,0,0:0:0:0:
256,192,44188,1,0,0:0:0:0:
256,192,44342,5,8,0:0:0:0:
256,192,44648,1,8,0:0:0:0:
256,192,44954,1,8,0:0:0:0:
256,192,45260,1,8,0:0:0:0:
256,192,45566,5,8,0:0:0:0:
256,192,45719,1,8,0:0:0:0:
256,192,45872,1,0,0:0:0:0:
256,192,48321,5,8,0:0:0:0:
256,192,48627,5,0,0:0:0:0:
256,192,48933,1,0,0:0:0:0:
256,192,49239,1,0,0:0:0:0:
256,192,49393,5,8,0:0:0:0:
256,192,49699,1,8,0:0:0:0:
256,192,50005,5,0,0:0:0:0:
256,192,50770,5,8,0:0:0:0:
256,192,51076,5,0,0:0:0:0:
256,192,51382,5,8,0:0:0:0:
256,192,51688,5,0,0:0:0:0:
256,192,51842,5,8,0:0:0:0:
256,192,52148,1,8,0:0:0:0:
256,192,52454,1,8,0:0:0:0:
256,192,53219,1,8,0:0:0:0:
256,192,53525,1,8,0:0:0:0:
256,192,53831,5,0,0:0:0:0:
256,192,54137,1,0,0:0:0:0:
256,192,54290,5,8,0:0:0:0:
256,192,54597,1,8,0:0:0:0:
256,192,54903,5,0,0:0:0:0:
256,192,55668,1,0,0:0:0:0:
256,192,55974,5,8,0:0:0:0:
256,192,56280,5,0,0:0:0:0:
256,192,56433,5,8,0:0:0:0:
256,192,56739,1,8,0:0:0:0:
256,192,57046,5,0,0:0:0:0:
256,192,57352,5,8,0:0:0:0:
256,192,57658,1,12,0:0:0:0:
256,192,58117,1,8,0:0:0:0:
256,192,58423,5,0,0:0:0:0:
256,192,58729,1,0,0:0:0:0:
256,192,59035,1,0,0:0:0:0:
256,192,59188,5,8,0:0:0:0:
256,192,59495,1,8,0:0:0:0:
256,192,59801,5,0,0:0:0:0:
256,192,60566,5,8,0:0:0:0:
256,192,60872,5,0,0:0:0:0:
256,192,61178,5,8,0:0:0:0:
256,192,61484,5,0,0:0:0:0:
256,192,61637,5,8,0:0:0:0:
256,192,61944,1,8,0:0:0:0:
256,192,62250,1,8,0:0:0:0:
256,192,63015,1,8,0:0:0:0:
256,192,63321,1,8,0:0:0:0:
256,192,63627,5,0,0:0:0:0:
256,192,63933,1,0,0:0:0:0:
256,192,64086,5,8,0:0:0:0:
256,192,64393,1,8,0:0:0:0:
256,192,64699,1,8,0:0:0:0:
256,192,65005,5,0,0:0:0:0:
256,192,65311,5,8,0:0:0:0:
256,192,66688,1,8,0:0:0:0:
256,192,67301,1,8,0:0:0:0:
256,192,67913,5,0,0:0:0:0:
256,192,68066,5,8,0:0:0:0:
256,192,68219,1,8,0:0:0:0:
256,192,68525,5,0,0:0:0:0:
256,192,68678,5,8,0:0:0:0:
256,192,68831,1,8,0:0:0:0:
256,192,69137,5,0,0:0:0:0:
256,192,69597,1,0,0:0:0:0:
256,192,69903,5,8,0:0:0:0:
256,192,70209,5,0,0:0:0:0:
256,192,70668,1,0,0:0:0:0:
256,192,70974,1,0,0:0:0:0:
256,192,71127,1,0,0:0:0:0:
256,192,71433,5,8,0:0:0:0:
256,192,71739,5,0,0:0:0:0:
256,192,71893,1,0,0:0:0:0:
256,192,72046,1,0,0:0:0:0:
256,192,72352,5,8,0:0:0:0:
256,192,72505,5,0,0:0:0:0:
256,192,72811,1,0,0:0:0:0:
256,192,72964,5,8,0:0:0:0:
256,192,73117,1,8,0:0:0:0:
256,192,73423,5,0,0:0:0:0:
256,192,73576,5,8,0:0:0:0:
256,192,73729,1,8,0:0:0:0:
256,192,74035,5,0,0:0:0:0:
256,192,74495,1,0,0:0:0:0:
256,192,74801,5,8,0:0:0:0:
256,192,75107,1,0,0:0:0:0:
256,192,75413,1,8,0:0:0:0:
256,192,75566,1,8,0:0:0:0:
256,192,75872,1,8,0:0:0:0:
256,192,76331,1,8,0:0:0:0:
256,192,76637,5,0,0:0:0:0:
256,192,76944,5,8,0:0:0:0:
256,192,77250,1,12,0:0:0:0:
256,192,77709,5,0,0:0:0:0:
256,192,77862,5,8,0:0:0:0:
256,192,78015,1,8,0:0:0:0:
256,192,78321,5,0,0:0:0:0:
256,192,78474,5,8,0:0:0:0:
256,192,78627,1,8,0:0:0:0:
256,192,78933,5,0,0:0:0:0:
256,192,79393,1,0,0:0:0:0:
256,192,79699,5,8,0:0:0:0:
256,192,80005,1,8,0:0:0:0:
256,192,80158,5,0,0:0:0:0:
256,192,80464,1,0,0:0:0:0:
256,192,80770,1,0,0:0:0:0:
256,192,80923,1,0,0:0:0:0:
256,192,81382,1,0,0:0:0:0:
256,192,81842,1,0,0:0:0:0:
256,192,82148,5,8,0:0:0:0:
256,192,82301,5,0,0:0:0:0:
256,192,82607,1,0,0:0:0:0:
256,192,82760,5,8,0:0:0:0:
256,192,82913,1,8,0:0:0:0:
256,192,83219,5,0,0:0:0:0:
256,192,83372,5,8,0:0:0:0:
256,192,83525,1,8,0:0:0:0:
256,192,83831,5,0,0:0:0:0:
256,192,84290,1,0,0:0:0:0:
256,192,84597,5,8,0:0:0:0:
256,192,84903,1,8,0:0:0:0:
256,192,85056,5,0,0:0:0:0:
256,192,85362,5,8,0:0:0:0:
256,192,85668,5,0,0:0:0:0:
256,192,85974,5,8,0:0:0:0:
256,192,86586,1,8,0:0:0:0:
256,192,87046,1,8,0:0:0:0:
256,192,87505,5,0,0:0:0:0:
256,192,87811,5,8,0:0:0:0:
256,192,88423,1,8,0:0:0:0:
256,192,89035,1,8,0:0:0:0:
256,192,89954,1,0,0:0:0:0:
256,192,90260,1,8,0:0:0:0:
256,192,90872,1,8,0:0:0:0:
256,192,91484,5,0,0:0:0:0:
256,192,91637,5,8,0:0:0:0:
256,192,92403,1,8,0:0:0:0:
256,192,92709,5,0,0:0:0:0:
256,192,93321,1,0,0:0:0:0:
256,192,93933,1,0,0:0:0:0:
256,192,94546,1,0,0:0:0:0:
256,192,94852,12,0,96076,0:0:0:0:
256,192,96688,5,12,0:0:0:0:
256,192,97301,1,8,0:0:0:0:
256,192,97607,1,8,0:0:0:0:
256,192,97913,5,0,0:0:0:0:
256,192,98219,1,0,0:0:0:0:
256,192,98525,1,0,0:0:0:0:
256,192,99137,1,4,0:0:0:0:
256,192,99444,1,4,0:0:0:0:
256,192,99750,5,8,0:0:0:0:
256,192,100362,5,0,0:0:0:0:
256,192,100668,1,0,0:0:0:0:
256,192,100974,1,8,0:0:0:0:
256,192,101280,5,8,0:0:0:0:
256,192,101586,1,8,0:0:0:0:
256,192,102199,1,8,0:0:0:0:
256,192,102505,1,8,0:0:0:0:
256,192,102811,5,0,0:0:0:0:
256,192,103117,1,0,0:0:0:0:
256,192,103423,1,0,0:0:0:0:
256,192,104035,1,4,0:0:0:0:
256,192,104342,1,4,0:0:0:0:
256,192,104648,5,8,0:0:0:0:
256,192,105260,1,8,0:0:0:0:
256,192,105566,5,0,0:0:0:0:
256,192,105719,5,8,0:0:0:0:
